> 早安家族<Hello! Project - Petit Best 16>高清蓝光MV精选合集2015【22G】1080P蓝光原盘
歌 手 : Berryz工房,早安家族,早安少女组,℃-ute,Juice=Juice
主音唯一码 : lgych-00507
视频大小 : 22G主音网微信 : tao18074625335
创建时间 : 2018-06-20主音网QQ客服 :2268809533
视频目录 : 蓝光演唱会
主音网邮箱 :bimuyu#www.iz00.com.cn(请把#改成@)
主音唯一码
lgych-00507
文件大小
22G
百度网盘下载
提取码
文件解压密码
早安家族<Hello! Project - Petit Best 16>高清蓝光MV精选合集2015【22G】1080P蓝光原盘 视频截图














早安家族<Hello! Project - Petit Best 16>高清蓝光MV精选合集2015【22G】1080P蓝光原盘 视频剧情截图
早安家族<Hello! Project - Petit Best 16>高清蓝光MV精选合集2015【22G】1080P蓝光原盘 演唱会曲目介绍
lgych-00507 早安家族 Hello! Project - Petit Best 16 高清蓝光MV精选合集2015【22G】1080P蓝光原盘

演唱会曲目

1. Love together!(Berryz工房)
2. 我武者LIFE(℃-ute)
3. 次の角を曲がれ(℃-ute)
4. 夕暮れは雨上がり(早安少女组 '15)
5. スカッとMy Heart(早安少女组 '15)
6. 大器晩成 (New edit Ver.)(アンジュルム ANGERME)
7. 臥薪嘗胆(アンジュルム ANGERME)
8. Wonderful World(Juice=Juice)
9. CHOICE CHANCE(Juice=Juice)
10. 続いていくSTORY
11. 恋泥棒(カントリー ガールズ Country Girls)
12. わかっているのにごめんね(カントリー ガールズ Country Girls)
13. 念には念 (LIVE MUSIC VIDEO)(こぶしファクトリー)
14. ドスコイ!ケンキョにダイタン(こぶしファクトリー)
主音唯一码
lgych-00507
文件大小
22G
百度网盘下载
提取码
文件解压密码
早安家族<Hello! Project - Petit Best 16>高清蓝光MV精选合集2015【22G】1080P蓝光原盘 演唱会视频参数信息
演唱会参数信息

DISC INFO:

Disc Title:     lgych-00507 早安家族 Hello! Project - Petit Best 16 高清蓝光MV精选合集2015【22G】1080P蓝光原盘
Disc Size:      23,712,685,620 bytes
Protection:     AACS
BD-Java:        No
BDInfo:         0.5.8

PLAYLIST REPORT:

Name:                   00000.MPLS
Length:                 1:11:47.002 (h:m:s.ms)
Size:                   0 bytes
Total Bitrate:          0.00 Mbps

VIDEO:

Codec                   Bitrate             Description     
-----                   -------             -----------     
MPEG-4 AVC Video        0 kbps              1080i / 29.970 fps / 16:9 / High Profile 4.1

AUDIO:

Codec                           Language        Bitrate         Description     
-----                           --------        -------         -----------     
LPCM Audio                      Japanese        2304 kbps       2.0 / 48 kHz / 2304 kbps / 24-bit

FILES:

Name            Time In         Length          Size            Total Bitrate   
----            -------         ------          ----            -------------   
00004.M2TS      0:00:00.000     0:06:18.377     0               0               
00005.M2TS      0:06:18.377     0:06:16.376     0               0               
00006.M2TS      0:12:34.753     0:05:05.305     0               0               
为您推荐 Berryz工房,早安家族,早安少女组,℃-ute,Juice=Juice 相关的演唱会视频
主音唯一码
lgych-00507
文件大小
22G
百度网盘下载
提取码
文件解压密码
最新天气预报 ℃
  • 2015年河北省公益广告作品展 2018-09-22